Impossible de faire une conversion Handbrake (j’ai tout le message d’erreur en fichier txt)

Tags: #<Tag:0x00007fb995c940b8>

Bonjour, hier soir j’ai essayer de lancé une compression vidéo via handbrake mais impossible de la finir, il ne crée qu’un fichier avec 0o, j’ai essayer de:

-faire la commande sfc/scannow, il y avait bien des fichiers corrompues mais une fois réparé le problème persiste toujours

-faire la commande chkdsk /f x:, après démarrage il y a toujours ce bug

-j’ai aussi mis a jour le logiciel mais il y a tjr ce même problème, j’ai donc essayé de retourner a une ancienne version mais rien n’y fait.

Voila le message d’erreur du fichier texte:

HandBrake 1.4.0 (2021071800)

OS: Microsoft Windows NT 10.0.19043.0

CPU: AMD Ryzen 5 3600X 6-Core Processor

Ram: 16295 MB,

GPU Information:

NVIDIA GeForce RTX 2060 - 30.0.14.7168

Screen: 1920x1080

Temp Dir: C:\Users\reyqu\AppData\Local\Temp\

Install Dir: C:\Program Files\HandBrake\

Data Dir: C:\Users\reyqu\AppData\Roaming\HandBrake


[11:57:16] hb_init: starting libhb thread

Starting Scan …

[11:57:16] CPU: AMD Ryzen 5 3600X 6-Core Processor

[11:57:16] - logical processor count: 12

[11:57:16] Intel Quick Sync Video support: no

[11:57:16] hb_scan: path=C:\Users\reyqu\Documents\Vidéos youtube\A convertir\peut etre c’est finis.avi, title_index=0

udfread ERROR: ECMA 167 Volume Recognition failed

src/libbluray/disc/disc.c:333: failed opening UDF image C:\Users\reyqu\Documents\Vidéos youtube\A convertir\peut etre c’est finis.avi

src/libbluray/disc/disc.c:437: error opening file BDMV\index.bdmv

src/libbluray/disc/disc.c:437: error opening file BDMV\BACKUP\index.bdmv

src/libbluray/bluray.c:2646: nav_get_title_list(C:\Users\reyqu\Documents\Vidéos youtube\A convertir\peut etre c’est finis.avi) failed

[11:57:16] bd: not a bd - trying as a stream/file instead

libdvdread: DVDOpenFileUDF:UDFFindFile /VIDEO_TS/VIDEO_TS.IFO failed

libdvdnav: vm: vm: failed to read VIDEO_TS.IFO

[11:57:16] dvd: not a dvd - trying as a stream/file instead

Input #0, avi, from ‹ C:\Users\reyqu\Documents\Vidéos youtube\A convertir\peut etre c’est finis.avi ›:

Metadata:

date            : 2021-11-04T18:40:30.994443 

Duration: 00:05:49.83, start: 0.000000, bitrate: 1195952 kb/s

Stream #0:0: Video: rawvideo, bgr24, 1920x1080, 1194535 kb/s, 24 fps, 24 tbr, 24 tbn, 24 tbc

Stream #0:1: Audio: pcm_s16le ([1][0][0][0] / 0x0001), 48000 Hz, 2 channels, s16, 1536 kb/s

[11:57:16] scan: decoding previews for title 1

[11:57:16] scan: audio 0x1: pcm_s16le, rate=48000Hz, bitrate=1536000 Unknown (pcm_s16le) (2.0 ch) (1536 kbps)

[11:57:17] scan: 10 previews, 1920x1080, 24.000 fps, autocrop = 0/0/0/0, aspect 16:9, PAR 1:1, color profile: 1-1-1

[11:57:17] libhb: scan thread found 1 valid title(s)

Processing Scan Information …

Scan Finished …

[11:57:17] decomb: deinterlaced 1 | blended 0 | unfiltered 0 | total 1

Salut @Reyqui, et bienvenue sur debian-fr.org :wink:

Comme le nom l’indique, nous sommes un forum d’entraide pour les utilisateurs de Debian. À moins que tu ne souhaites passer à Debian, il va te falloir trouver un autre forum d’entraide pour utilisateurs de Windows.